<?xml version="1.0" standalone="no"?>
<!DOCTYPE svg PUBLIC "-//W3C//DTD SVG 1.1//EN" "http://www.w3.org/Graphics/SVG/1.1/DTD/svg11.dtd" >
<!--
2013-9-30: Created.
-->
<svg>
<metadata>
Created by iconfont
</metadata>
<defs>

<font id="iconfont" horiz-adv-x="1024" >
  <font-face
    font-family="iconfont"
    font-weight="500"
    font-stretch="normal"
    units-per-em="1024"
    ascent="896"
    descent="-128"
  />
    <missing-glyph />
    
    <glyph glyph-name="x" unicode="x" horiz-adv-x="1001"
d="M281 543q-27 -1 -53 -1h-83q-18 0 -36.5 -6t-32.5 -18.5t-23 -32t-9 -45.5v-76h912v41q0 16 -0.5 30t-0.5 18q0 13 -5 29t-17 29.5t-31.5 22.5t-49.5 9h-133v-97h-438v97zM955 310v-52q0 -23 0.5 -52t0.5 -58t-10.5 -47.5t-26 -30t-33 -16t-31.5 -4.5q-14 -1 -29.5 -0.5
t-29.5 0.5h-32l-45 128h-439l-44 -128h-29h-34q-20 0 -45 1q-25 0 -41 9.5t-25.5 23t-13.5 29.5t-4 30v167h911zM163 247q-12 0 -21 -8.5t-9 -21.5t9 -21.5t21 -8.5q13 0 22 8.5t9 21.5t-9 21.5t-22 8.5zM316 123q-8 -26 -14 -48q-5 -19 -10.5 -37t-7.5 -25t-3 -15t1 -14.5
t9.5 -10.5t21.5 -4h37h67h81h80h64h36q23 0 34 12t2 38q-5 13 -9.5 30.5t-9.5 34.5q-5 19 -11 39h-368zM336 498v228q0 11 2.5 23t10 21.5t20.5 15.5t34 6h188q31 0 51.5 -14.5t20.5 -52.5v-227h-327z" />
    

    
    <glyph glyph-name="jingxuanshichang" unicode="&#13393;" d="M627.977626 476.225434c119.09417-1.609626 238.185267-3.234714 357.295821-4.859699-4.320563 15.968666-8.659558 31.970099-12.985242 47.956173-94.425395-72.591258-188.872192-145.212314-283.298611-217.802547-9.083187-6.970778-15.551795-17.022669-11.830886-29.056819 35.275878-113.777357 70.511718-227.553587 105.774285-341.313536 12.613837 9.670246 25.217331 19.389645 37.817856 29.076173-98.232218 67.357082-196.461363 134.754099-294.693581 202.115277-6.971085 4.792115-19.035341 4.890419-25.973555 0L208.141824-43.727667c12.618957-9.687654 25.200947-19.373261 37.821952-29.057843 33.73056 114.214298 67.447808 228.459213 101.16311 342.70423 3.554099 11.964518-2.581914 22.152499-11.829862 29.056819-95.382221 71.316275-190.799155 142.631526-286.198784 213.963059-4.321587-16.00041-8.661606-31.986483-12.985242-47.956173 119.059354 3.234714 238.11881 6.450893 357.196595 9.669222 12.030464 0.334643 21.047194 7.725978 24.833638 18.90048 38.34071 112.771379 76.697907 225.542861 115.056026 338.296832l-49.636478 0c39.850189-112.235213 79.714714-224.469402 119.579238-336.723046 11.026534-31.032832 60.796109-17.659187 49.634406 13.689754-39.846093 112.235213-79.728026 224.47145-119.57719 336.723046-8.614502 24.230912-41.238835 24.733286-49.636454 0-38.35607-112.771379-76.713267-225.541837-115.052954-338.295808 8.260506 6.283059 16.522957 12.582605 24.80087 18.884096-119.077786-3.21833-238.137242-6.434509-357.196595-9.668198-27.38176-0.753152-32.77783-33.195008-13.003674-47.974605 95.414886-71.315251 190.831923-142.630502 286.212096-213.945651-3.9552 9.684582-7.874662 19.371213-11.830886 29.055795-33.732608-114.247066-67.446784-228.458189-101.179494-342.70423-6.049997-20.51113 18.950349-42.393498 37.80352-29.072179 97.058406 68.499046 194.083123 136.983859 291.10569 205.485978-15.284736-10.792858-34.48576 7.003546-12.482765-8.079053 11.142246-7.640986 22.268006-15.282074 33.380557-22.919987 33.763328-23.160525 67.547136-46.316851 101.29408-69.476352 49.132954-33.679053 98.231194-67.35913 147.331379-101.074022 18.783539-12.868096 44.272128 8.344064 37.83936 29.087437-35.254374 113.779405-70.532198 227.520922-105.772237 341.297152-3.956224-9.685606-7.909478-19.371213-11.84727-29.054771 94.426419 72.58921 188.871168 145.194906 283.312947 217.800499 19.222528 14.779597 14.782259 47.586816-13.00265 47.956173-119.110554 1.62601-238.202675 3.250995-357.295821 4.860723C594.746368 528.15319 594.798592 476.677734 627.977626 476.225434"  horiz-adv-x="1024" />

    
    <glyph glyph-name="home" unicode="&#59064;" d="M96 416c-9.6 0-19.2 3.2-25.6 12.8-12.8 12.8-9.6 35.2 3.2 44.8l377.6 310.4c35.2 25.6 86.4 25.6 118.4 0l377.6-307.2c12.8-9.6 16-32 3.2-44.8s-32-16-44.8-3.2l-374.4 300.8c-9.6 6.4-28.8 6.4-38.4 0l-377.6-307.2c-6.4-6.4-12.8-6.4-19.2-6.4zM816-32h-208c-19.2 0-32 12.8-32 32v150.4c0 22.4-38.4 44.8-67.2 44.8s-64-19.2-64-44.8v-150.4c0-19.2-12.8-32-32-32h-201.6c-48 0-83.2 35.2-83.2 80v304c0 19.2 12.8 32 32 32s32-12.8 32-32v-304c0-9.6 6.4-16 19.2-16h172.8v118.4c0 64 67.2 108.8 128 108.8s131.2-44.8 131.2-108.8v-118.4h176c9.6 0 16 0 16 19.2v300.8c0 19.2 12.8 32 32 32s32-12.8 32-32v-304c-3.2-48-35.2-80-83.2-80z"  horiz-adv-x="1024" />

    
    <glyph glyph-name="copy" unicode="&#59142;" d="M672 64 224 64c-52.928 0-96 43.072-96 96L128 736c0 52.928 43.072 96 96 96l448 0c52.928 0 96-43.072 96-96l0-576C768 107.072 724.928 64 672 64zM224 768C206.368 768 192 753.632 192 736l0-576c0-17.664 14.368-32 32-32l448 0c17.664 0 32 14.336 32 32L704 736c0 17.632-14.336 32-32 32L224 768zM800-64 320-64c-17.664 0-32 14.304-32 32s14.336 32 32 32l480 0c17.664 0 32 14.336 32 32L832 640c0 17.664 14.304 32 32 32s32-14.336 32-32l0-608C896-20.928 852.928-64 800-64zM544 576 288 576c-17.664 0-32 14.336-32 32s14.336 32 32 32l256 0c17.696 0 32-14.336 32-32S561.696 576 544 576zM608 416 288.032 416c-17.664 0-32 14.336-32 32s14.336 32 32 32L608 480c17.696 0 32-14.336 32-32S625.696 416 608 416zM608 256 288 256c-17.664 0-32 14.304-32 32s14.336 32 32 32l320 0c17.696 0 32-14.304 32-32S625.696 256 608 256z"  horiz-adv-x="1024" />

    
    <glyph glyph-name="gouwu" unicode="&#58944;" d="M854.569 642.328l-138.1 0 0 61.228c0 46.616-40.144 87.515-85.906 87.515l-235.8 0c-45.982 0-86.323-40.898-86.323-87.515l0-61.228-138.1 0c-14.097 0-25.514-11.436-25.514-25.531l0-538.151c0-70.005 54.082-126.984 120.571-126.984l494.511 0c66.273 0 120.194 56.98 120.194 126.984l0 538.151c0.001 14.095-11.434 25.531-25.531 25.531zM359.502 703.557c0 18.067 17.788 36.451 35.261 36.451l235.8 0c17.609 0 34.882-18.067 34.882-36.451l0-61.228-305.944 0 0 61.228zM308.439 591.265l0-82.433c-7.425-7.187-12.071-17.232-12.071-28.39 0-21.879 17.77-39.668 39.668-39.668 21.879 0 39.628 17.789 39.628 39.668 0 13.064-6.392 24.579-16.162 31.807l0 79.016 305.944 0 0-79.016c-9.787-7.227-16.2-18.742-16.2-31.807 0-21.879 17.748-39.668 39.646-39.668 21.899 0 39.648 17.789 39.648 39.668 0 11.158-4.647 21.203-12.071 28.39l0 82.433 112.589 0 0-457.902-633.19 0 0 457.902 112.571 0zM759.907 2.727l-494.511 0c-38.337 0-69.528 34.028-69.528 75.92l0 10.086 633.19 0 0-10.086c-0.001-41.892-31.031-75.92-69.152-75.92z"  horiz-adv-x="1024" />

    
    <glyph glyph-name="liwu" unicode="&#58967;" d="M898.897236 633.489214 718.143499 633.489214c11.120268 18.983353 16.859993 40.910759 16.859993 62.33265 0 56.446593-38.850843 113.585965-113.166409 113.585965-34.351366 0-63.551408-11.961426-86.803995-35.59059-12.486382-12.656251-21.98778-27.813462-29.43131-43.706431-7.272637 15.872502-16.60826 30.987758-28.884864 43.642986-23.041786 23.673166-52.095495 35.655058-86.426395 35.655058-44.021609 0-70.573335-19.635199-85.101213-36.117592-18.10024-20.518313-28.065196-48.015573-28.065196-77.468372 0-21.422915 5.760191-43.349297 16.881482-62.33265L125.360637 633.490238c-14.925944 0-27.01426-12.109806-27.01426-27.03575l0-245.693772c0-14.926968 12.087293-27.03575 27.01426-27.03575l36.685527 0 0-346.07704c0-14.927991 12.088316-27.036773 27.01426-27.036773l248.76369 0 148.632155 0 248.741177 0c14.927991 0 27.015284 12.108782 27.015284 27.036773L862.212732 333.72292l36.684504 0c14.926968 0 27.01426 12.108782 27.01426 27.03575L925.911496 606.452441C925.911496 621.379409 913.824203 633.489214 898.897236 633.489214zM573.547263 735.891466c12.887518 13.096273 28.675086 19.487843 48.288796 19.487843 43.641963 0 59.137889-32.080649 59.137889-59.557444 0-16.524348-5.550413-32.460296-15.243169-43.706431-10.614755-12.341073-25.331945-18.605753-43.789319-18.626219l-86.23606 0.692778C538.986119 665.652751 548.803719 710.789765 573.547263 735.891466zM331.17412 695.821865c0 16.270569 5.151323 31.071669 14.56881 41.729403 10.407024 11.815093 25.39539 17.828041 44.547589 17.828041 19.404955 0 34.961256-6.28617 47.575552-19.21462 24.470321-25.080212 33.80492-70.869071 36.727483-102.675474l-36.769438 0-47.532573 0C343.620593 633.489214 331.17412 672.674679 331.17412 695.821865zM152.374898 579.438181l237.916645 0 20.497846 0 0-191.665251L152.374898 387.77293 152.374898 579.438181zM216.074685 333.72292l194.71368 0 0-319.064826L216.074685 14.658094 216.074685 333.72292zM464.838376 14.658094 464.838376 579.438181l37.862329 0 56.720839 0 0-564.780087L464.838376 14.658094zM808.163745 14.658094l-194.694237 0L613.469508 333.72292l194.694237 0L808.163745 14.658094zM871.862509 387.77293 613.469508 387.77293l0 191.665251 8.135284 0 0.232291 0 250.025427 0L871.862509 387.77293z"  horiz-adv-x="1024" />

    
    <glyph glyph-name="edit" unicode="&#59038;" d="M34.155089 665.059773 9.17948 665.059773 9.17948 639.796614 9.17948 41.841988C9.17948-27.769568 65.248004-84.289737 134.081773-84.289737L927.938515-84.289737 952.914125-84.289737 952.914125-59.026579 952.914125 424.899439C952.914125 438.851895 941.732164 450.162598 927.938515 450.162598 914.144868 450.162598 902.962906 438.851895 902.962906 424.899439L902.962906-59.026579 927.938515-33.76342 134.081773-33.76342C92.797081-33.76342 59.130699 0.174153 59.130699 41.841988L59.130699 639.796614 34.155089 614.533457 598.93821 614.533457C612.731859 614.533457 623.91382 625.844158 623.91382 639.796614 623.91382 653.749072 612.731859 665.059773 598.93821 665.059773L34.155089 665.059773ZM437.016339 302.496211 431.876019 295.895108 431.668623 287.494786 427.984924 138.290259 427.077935 101.553579 461.312335 113.853545 605.005395 165.480553 611.980762 167.986709 616.479561 173.932757 1003.181673 685.035772 1018.529978 705.321579 998.306108 720.620695 869.49174 818.067219 849.985487 832.823464 834.913446 813.46823 437.016339 302.496211ZM839.575373 777.604982 968.389739 680.158458 963.514174 715.743381 576.81206 204.640367 588.286225 213.092572 444.593165 161.465564 477.920574 137.028849 481.604275 286.233378 476.256559 271.231953 874.153664 782.20397 839.575373 777.604982ZM891.217762 585.494287 920.474916 626.446748 808.309143 708.435734 779.051989 667.483275 891.217762 585.494287Z"  horiz-adv-x="1024" />

    
    <glyph glyph-name="zhuiocn" unicode="&#58892;" d="M708.074677 50.653913c-1.936095 0-3.483334 0.061398-4.559852 0.12382l-53.368488 0c-14.128789 0-25.582655 11.452843-25.582655 25.582655L624.563682 255.433856l-108.470457 0 0-179.072445c0-14.129812-11.453866-25.582655-25.582655-25.582655L312.316122 50.778756c-6.509251-0.232291-34.827203 0.086981-56.985876 20.893866-11.286044 10.597359-24.740474 30.429033-24.740474 64.719001L230.589772 352.653061l-84.934414 0c-10.354835 0-19.687388 6.242168-23.642466 15.811104s-1.7519 20.578688 5.582135 27.89021l323.364759 322.341452c10.004865 9.972119 26.203802 9.949606 36.178991-0.058328 9.974166-10.005888 9.948583-26.203802-0.058328-36.178991L207.557196 403.818371l48.616254 0c14.128789 0 25.582655-11.453866 25.582655-25.582655l0-241.845117c0-12.836353 2.892887-22.062482 8.599865-27.421536 7.690146-7.221472 19.693528-7.086395 19.809161-7.077186 0.534166 0.033769 1.070378 0.051165 1.606591 0.051165l153.155169 0L464.926892 281.016511c0 14.129812 11.453866 25.582655 25.582655 25.582655l159.635767 0c14.128789 0 25.582655-11.452843 25.582655-25.582655l0-179.072445 28.652574 0c0.880043 0 1.285273 0.001023 2.12336-0.085958 4.929266-0.296759 18.989493 0.639566 27.201525 8.324596 5.665023 5.300726 8.537444 14.118556 8.537444 26.208918L742.242871 378.235716c0 14.128789 11.453866 25.582655 25.582655 25.582655l48.755424 0L589.077469 631.322875c-9.990538 9.990538-9.990538 26.188452 0 36.178991 9.991562 9.991562 26.188452 9.991562 36.178991 0l271.176143-271.176143c7.316639-7.316639 9.505491-18.320251 5.545296-27.879977-3.959172-9.559727-13.287631-15.792685-23.635303-15.792685l-84.934414 0 0-216.262462c0-33.803897-13.759375-53.508681-25.302269-64.086597C747.077993 53.035146 720.110805 50.653913 708.074677 50.653913z"  horiz-adv-x="1024" />

    
    <glyph glyph-name="jiaxingshoucang" unicode="&#58961;" d="M1010.522034 517.874033c-2.697435 7.186679-9.568936 11.9471-17.244756 11.9471l-317.167616 0.024559L531.542078 866.433614c-2.907213 6.767124-9.56382 11.149944-16.924461 11.149944-0.021489 0-0.042979 0-0.064468 0-7.386224-0.025583-14.042831-4.461615-16.910135-11.269671L355.918175 529.845693l-319.960219-0.024559c-7.66354 0-14.524808-4.746094-17.231453-11.915377-2.706645-7.169283-0.690732-15.264659 5.061272-20.329001l264.485767-232.853325-87.217411-311.044152c-2.061962-7.354502 0.62831-15.21861 6.764054-19.768229 6.135744-4.548596 14.44192-4.840238 20.881586-0.730641l285.916868 182.503591 285.915845-182.503591c3.027963-1.933025 6.471388-2.892887 9.909697-2.892887 3.796466 0 7.584746 1.171686 10.799974 3.497661 6.124488 4.431939 8.919137 12.156878 7.04751 19.481703l-43.378973 169.779801c-0.10847 0.425695-0.233314 0.848321-0.37146 1.264806-7.653307 22.956851-15.889899 63.611783-9.262968 77.967746 4.264117 9.235338 0.233314 20.179598-9.004071 24.443715-9.239432 4.264117-20.180622 0.233314-24.443715-9.004071-7.04137-15.252379-7.662517-37.273928-1.899256-67.321268 3.518127-18.34788 8.340969-33.67189 9.441023-37.062104l31.686676-124.018571L524.528338 153.062304c-6.043646 3.857864-13.776771 3.857864-19.820418 0L249.554706-9.804041l77.314877 275.729855c1.910513 6.814196-0.251733 14.121626-5.563716 18.797112L84.751243 492.986203l283.396465 0.021489c7.40976 0 14.097066 4.441149 16.97358 11.269671L514.783393 812.106288l132.266419-307.947628c2.90619-6.765077 9.56075-11.149944 16.923438-11.149944l280.237519-0.021489L711.389166 289.531442c-7.659447-6.693446-8.443299-18.329461-1.74883-25.989931 6.693446-7.659447 18.331507-8.442276 25.989931-1.74883l269.766027 235.739049C1011.175927 502.582769 1013.219469 510.688377 1010.522034 517.874033z"  horiz-adv-x="1024" />

    
    <glyph glyph-name="post" unicode="&#59225;" d="M800-64 224-64c-52.928 0-96 43.072-96 96L128 672c0 52.928 43.072 96 96 96l448 0c17.696 0 32-14.336 32-32s-14.304-32-32-32L224 704C206.368 704 192 689.632 192 672l0-640c0-17.664 14.368-32 32-32l576 0c17.664 0 32 14.336 32 32L832 544c0 17.664 14.304 32 32 32s32-14.336 32-32l0-512C896-20.928 852.928-64 800-64zM511.68 353.28c-8.256 0-16.512 3.168-22.752 9.504-12.416 12.576-12.32 32.832 0.256 45.248L907.488 821.76c12.608 12.448 32.832 12.288 45.248-0.256 12.448-12.576 12.32-32.832-0.256-45.248L534.176 362.528C527.936 356.352 519.808 353.28 511.68 353.28z"  horiz-adv-x="1024" />

    
    <glyph glyph-name="remind" unicode="&#58975;" d="M819.2 108.8 204.8 108.8c-12.8 0-19.2 6.4-25.6 12.8s-6.4 19.2 0 32l57.6 115.2L236.8 448c0 115.2 76.8 224 185.6 262.4C428.8 748.8 467.2 780.8 512 780.8S595.2 748.8 601.6 704c108.8-38.4 185.6-140.8 185.6-262.4l0-179.2 57.6-115.2c6.4-6.4 6.4-19.2 0-32S832 108.8 819.2 108.8zM256 166.4l512 0-38.4 76.8c0 6.4-6.4 6.4-6.4 12.8L723.2 448c0 96-64 185.6-160 204.8C550.4 659.2 537.6 672 544 684.8c0 0 0 6.4 0 6.4 0 12.8-12.8 25.6-32 25.6S480 710.4 480 691.2c0 0 0 0 0-6.4 0-12.8-6.4-32-25.6-32C364.8 627.2 294.4 544 294.4 448l0-185.6c0-6.4 0-6.4-6.4-12.8L256 166.4zM422.4 76.8c0-51.2 38.4-89.6 89.6-89.6 51.2 0 89.6 38.4 89.6 89.6L422.4 76.8z"  horiz-adv-x="1024" />

    
    <glyph glyph-name="tongzhi" unicode="&#59226;" d="M889.828994 146.362506c-1.204099 1.548127-119.205779 166.165631-119.205779 287.435579 0 168.401814-76.202251 254.752898-162.725349 286.919536L607.897867 736.026877c0 52.980346-43.175542 95.983874-95.983874 95.983874S415.930119 788.835209 415.930119 736.026877l0-16.685369c-10.836889-7.912649-16.169326-21.845792-11.868974-35.262893 5.332437-16.857383 23.393919-25.974131 40.251302-20.641693 17.717453 5.676466 36.983034 8.428691 56.936671 8.428691l21.32975 0c115.249454 0 184.055098-89.103309 184.055098-238.239543 0-108.024861 72.933983-235.315303 110.261045-293.456073-57.452713-26.146145-183.023014-76.202251-304.809004-76.202251-121.441962 0-247.356291 50.400134-304.809004 76.546279 37.327062 57.968755 110.089031 184.915169 110.089031 293.112044 0 62.441122 11.524945 114.217369 34.574836 153.952629 8.77272 15.309256 3.612296 34.918864-11.69696 43.691584-15.48127 8.944734-34.918864 3.612296-43.691584-11.69696-28.554342-49.540064-43.175542-112.1532-43.175542-185.947253 0-121.269948-118.00168-285.199395-119.205779-286.919536-5.332437-7.568621-7.396607-16.857383-5.332437-25.974131 2.064169-8.944734 7.912649-16.685369 15.997312-20.985721 5.676466-3.096254 107.336805-57.280699 233.423148-84.458928 21.32975-66.397447 73.966068-111.29313 133.654964-111.29313s112.325214 44.895683 133.654964 111.29313c126.086343 27.178229 227.746682 81.018646 233.423148 83.942886 8.084663 4.472367 13.933143 12.040988 16.169326 20.985721C897.225601 129.333109 895.333445 138.793885 889.828994 146.362506zM501.249118 736.026877c-7.224593 0-14.277171-1.032085-21.32975-1.548127L479.919368 736.026877c0 17.545439 14.449185 31.994625 31.994625 31.994625 17.545439 0 31.994625-14.449185 31.994625-31.994625l0-0.860071c-7.224593 0.516042-14.277171 0.860071-21.32975 0.860071L501.249118 736.026877zM511.913993-32.016126c-22.361834 0-43.175542 13.417101-57.968755 35.262893 19.26558-2.064169 38.531161-3.268268 57.968755-3.268268s38.875189 1.376113 57.968755 3.268268C555.089535-18.599026 534.275827-32.016126 511.913993-32.016126z"  horiz-adv-x="1024" />

    
    <glyph glyph-name="bianji" unicode="&#59056;" d="M908.785955 403.584034c-11.04966 0-20.008706-8.958022-20.008706-20.008706l0-338.328565c0-38.614459-31.416524-70.030983-70.030983-70.030983L202.707748-24.78422c-38.614459 0-70.030983 31.416524-70.030983 70.030983l0 676.303067c0 38.614459 31.416524 70.030983 70.030983 70.030983l362.378308 0c11.04966 0 20.008706 8.958022 20.008706 20.008706 0 11.050684-8.959046 20.008706-20.008706 20.008706L202.707748 831.598224c-60.681034 0-110.049418-49.367361-110.049418-110.049418l0-676.303067c0-60.681034 49.367361-110.049418 110.049418-110.049418l616.038518 0c60.681034 0 110.049418 49.367361 110.049418 110.049418L928.795685 383.574305C928.795685 394.626012 919.836639 403.584034 908.785955 403.584034zM942.576549 778.014842 907.20597 813.385421c-23.405059 23.405059-61.486376 23.400966-84.891436 0l-422.369633-422.36861c-1.295506-1.296529-2.407839-2.76395-3.304256-4.363378L269.318842 159.583834c-4.457522-7.951089-2.977821-17.909905 3.598968-24.221658 3.830235-3.675716 8.823969-5.572926 13.859659-5.572926 3.613294 0 7.247054 0.977257 10.488889 2.973728l219.285309 135.104047c1.327228 0.816598 2.552126 1.784646 3.654226 2.885723l422.369633 422.36861C965.979562 716.528466 965.979562 754.609783 942.576549 778.014842zM418.556794 343.919143l55.42124-55.279001-132.025942-81.343633L418.556794 343.919143zM914.279063 721.420893 505.926678 313.069531l-63.748906 63.586201L850.612021 785.087934c7.798617 7.800663 20.493753 7.804756 28.29544 0l35.371602-35.371602C922.081773 741.915669 922.081773 729.222579 914.279063 721.420893z"  horiz-adv-x="1024" />

    
    <glyph glyph-name="shouye" unicode="&#59083;" d="M958.400956 444.45079c-0.058328 5.760191-2.597151 11.215436-6.965645 14.97097L524.345166 826.488857c-7.498788 6.445806-18.581194 6.445806-26.079982 0L309.582871 664.3245l0 102.017488c0 11.04966-8.901741 19.532869-19.951401 19.532869l-88.034009 0c-11.048637 0-19.928888-8.482185-19.928888-19.532869l0-211.954343L71.176063 459.42176c-4.423753-3.800559-6.967692-9.341762-6.967692-15.173584l0-105.500822c0-7.819083 4.554736-14.921851 11.660574-18.183128 2.670829-1.226944 5.51562-1.824555 8.343015-1.824555 4.699022 0 9.346879 1.654686 13.048177 4.836145l53.29788 45.825698 0-324.100516c0-60.677964 49.364291-110.042255 110.042255-110.042255L764.792447-64.741257c60.677964 0 110.042255 49.364291 110.042255 110.042255L874.834702 368.973772l51.585889-44.335764c5.955642-5.119601 14.356986-6.282077 21.481244-2.965541 7.122211 3.313465 11.645225 10.488889 11.565407 18.342764L958.400956 444.45079zM221.578538 745.965915l48.095391 0 0-115.941616-48.095391-41.336454L221.578538 745.965915zM570.718333-24.725892 436.666244-24.725892 436.666244 195.357596c0 11.031241 8.976442 20.007683 20.007683 20.007683l94.0357 0c11.031241 0 20.007683-8.976442 20.007683-20.007683L570.71731-24.725892zM834.818313 400.104793l0-354.803795c0-38.612413-31.414477-70.02689-70.02689-70.02689l-154.058748 0L610.732675 195.357596c0 33.096792-26.926256 60.023048-60.023048 60.023048l-94.0357 0c-33.096792 0-60.023048-26.926256-60.023048-60.023048l0-220.084511L260.59925-24.726915c-38.612413 0-70.02689 31.414477-70.02689 70.02689L190.57236 400.104793c0 1.172709-0.121773 2.314719-0.315178 3.432169l322.113255 276.958846 322.70268-277.348726C834.921667 402.151405 834.818313 401.141402 834.818313 400.104793zM525.411451 722.052273c-7.502881 6.445806-18.587334 6.446829-26.086122-0.00307L104.223736 382.336104l0 52.726875 407.081439 349.870436 407.176606-349.9523 0.521886-51.205219L525.411451 722.052273z"  horiz-adv-x="1024" />

    
    <glyph glyph-name="shoucang" unicode="&#59167;" d="M701.696542 210.201835m-27.460833 0a27.460833 27.460833 0 1 1 54.921666 0 27.460833 27.460833 0 1 1-54.921666 0ZM677.126323 306.314749m-27.460833 0a27.460833 27.460833 0 1 1 54.921666 0 27.460833 27.460833 0 1 1-54.921666 0ZM753.00494 367.017643m-27.460833 0a27.460833 27.460833 0 1 1 54.921666 0 27.460833 27.460833 0 1 1-54.921666 0ZM897.535639 509.380381L635.935074 510.103035l-87.441073 245.702187C544.880734 765.922371 534.763585 773.148906 524.646436 773.148906s-20.234298-6.503881-23.847565-16.62103l-87.441073-245.702188-261.600564-1.445307c-10.839802 0-20.234298-6.503881-23.847566-16.62103s-0.722653-20.956951 7.949189-28.183486l209.569513-171.268878-75.155964-255.096684c-2.890614-10.839802 0.722653-21.679605 10.117149-28.183486 9.394495-6.503881 20.956951-5.781228 29.628794 0.722654l214.628087 166.932957 214.628088-166.932957c4.335921-3.613267 10.117149-5.058574 15.175723-5.058575 5.058574 0 10.117149 1.445307 14.45307 4.335921 9.394495 6.503881 13.007763 17.343684 10.117149 28.183486l-26.015526 87.441073c-3.613267 13.730416-18.066337 20.956951-31.0741 17.343684-13.730416-3.613267-20.956951-18.066337-17.343684-31.0741l3.613267-12.28511-168.378264 130.077629c-8.671842 7.226535-22.402258 7.226535-31.0741 0l-168.378264-130.800282 57.81228 195.839097c2.890614 10.117149-0.722653 20.234298-7.949189 26.738179l-167.65561 137.304164 208.846859 0.722653c10.839802 0 20.234298 6.503881 23.847566 16.62103L524.646436 671.977417l69.374735-195.116443c3.613267-10.117149 13.007763-16.62103 23.847566-16.62103l208.846859-0.722654-7.226535-5.781228c-10.839802-8.671842-12.285109-24.570219-3.613267-35.410021 8.671842-10.839802 24.570219-12.285109 35.410021-3.613268l62.148201 50.585745c7.949188 6.503881 11.562456 18.066337 7.949188 28.183486-3.613267 8.671842-13.730416 15.898377-23.847565 15.898377z"  horiz-adv-x="1024" />

    
    <glyph glyph-name="kaiguan" unicode="&#58913;" d="M652.899 706.734c-16.036 7.058-34.761-0.22-41.82-16.258-7.059-16.038 0.221-34.761 16.258-41.819 104.649-46.06 172.27-149.682 172.27-263.991 0-77-29.986-149.392-84.434-203.839s-126.839-84.434-203.839-84.434-149.393 29.986-203.84 84.434c-54.448 54.447-84.433 126.839-84.433 203.839 0 114.963 68.159 218.821 173.642 264.591 16.075 6.975 23.451 25.659 16.477 41.733-6.975 16.075-25.662 23.452-41.734 16.477-128.688-55.837-211.839-182.544-211.839-322.8 0-47.469 9.304-93.535 27.653-136.917 17.717-41.887 43.073-79.499 75.365-111.791 32.292-32.291 69.903-57.647 111.791-75.364 43.383-18.35 89.449-27.653 136.918-27.653 47.468 0 93.535 9.304 136.917 27.653 41.888 17.717 79.499 43.073 111.791 75.364 32.291 32.292 57.647 69.904 75.364 111.791 18.35 43.383 27.653 89.448 27.653 136.917 0.001 139.458-82.493 265.877-210.16 322.067zM512 416.483c17.522 0 31.727 14.205 31.727 31.727V767.772c0 17.522-14.204 31.727-31.727 31.727s-31.727-14.205-31.727-31.727V448.21c0-17.522 14.205-31.727 31.727-31.727z"  horiz-adv-x="1024" />

    
    <glyph glyph-name="anquan" unicode="&#58935;" d="M514.145-11.826c-4.503 0-9.009 0.983-13.186 2.955-2.99 1.411-74.065 35.17-146.179 88.15C252.808 154.197 201.104 228.626 201.104 300.5v411c0 15.493 11.475 28.591 26.833 30.628l282.145 37.429a30.96 30.96 0 0 0 8.188-0.008l277.855-37.429c15.331-2.065 26.771-15.15 26.771-30.62v-411c0-69.353-50.867-142.982-151.188-218.846-70.925-53.633-140.815-88.755-143.757-90.224a30.892 30.892 0 0 0-13.806-3.256zM262.896 684.432V300.5c0-26.678 12.581-56.058 37.391-87.326 21.695-27.34 52.338-55.635 91.078-84.096 49.419-36.309 99.151-63.345 122.399-75.294 23.103 12.503 72.58 40.705 121.36 77.679 38.047 28.839 68.136 57.207 89.432 84.317 24.251 30.873 36.547 59.377 36.547 84.72V684.487l-246.99 33.271-251.217-33.326z"  horiz-adv-x="1024" />

    
    <glyph glyph-name="shijian" unicode="&#58936;" d="M511.333 768.667c51.868 0 102.15-10.144 149.451-30.15 45.719-19.337 86.792-47.034 122.078-82.321 35.287-35.286 62.983-76.359 82.321-122.078 20.006-47.3 30.15-97.583 30.15-149.451s-10.144-102.15-30.15-149.451c-19.337-45.719-47.034-86.792-82.321-122.078-35.286-35.287-76.359-62.983-122.078-82.321-47.3-20.006-97.583-30.15-149.451-30.15s-102.15 10.144-149.451 30.15c-45.719 19.337-86.792 47.034-122.078 82.321-35.287 35.286-62.983 76.359-82.321 122.078-20.006 47.3-30.15 97.583-30.15 149.451s10.144 102.15 30.15 149.451c19.337 45.719 47.034 86.792 82.321 122.078 35.286 35.287 76.359 62.983 122.078 82.321 47.301 20.006 97.583 30.15 149.451 30.15m0 64c-247.424 0-448-200.576-448-448s200.576-448 448-448 448 200.576 448 448-200.576 448-448 448zM702.856 352.667H511.333c-17.673 0-32 14.326-32 32v286.73c0 17.673 14.327 32 32 32s32-14.327 32-32v-254.73h159.522c17.673 0 32-14.327 32-32s-14.326-32-31.999-32z"  horiz-adv-x="1024" />

    
    <glyph glyph-name="text" unicode="&#58950;" d="M799.999887 606.643642H224.000113a31.970084 31.970084 0 0 1 0-63.940169h575.999774a31.970084 31.970084 0 0 1 0 63.940169zM799.999887 415.906867H224.000113a31.970084 31.970084 0 1 1 0-63.940169h575.999774a31.970084 31.970084 0 1 1 0 63.940169zM799.999887 225.170092H224.000113a31.970084 31.970084 0 0 1 0-63.940169h575.999774a31.970084 31.970084 0 0 1 0 63.940169zM948.041247 739.85594A150.750689 150.750689 0 0 1 809.164645 832.059831h-0.278158l-73.444496-1.325765a31.988147 31.988147 0 0 1 1.112631-63.965456l72.866506 1.260741a86.124156 86.124156 0 0 0 61.100792-25.449632c16.41131-16.41131 25.366546-38.234054 25.366546-61.440361v-594.278716c0-23.206308-8.955236-44.956802-25.366546-61.368112a86.059133 86.059133 0 0 0-61.357275-25.377384H214.835355c-23.206308 0-45.061563 8.969686-61.472873 25.377384A86.18918 86.18918 0 0 0 127.880338 86.860642V681.139358a86.94418 86.94418 0 0 0 86.940568 86.882768h73.173562a31.970084 31.970084 0 1 1 0 63.940169H214.835355A150.82655 150.82655 0 0 1 63.940169 681.139358v-594.278716A150.598966 150.598966 0 0 1 214.835355-63.825022h594.32929A150.328033 150.328033 0 0 1 959.825022 86.860642V681.139358a149.836742 149.836742 0 0 1-11.783775 58.716582zM415.997629 768.119662h192.001129a31.970084 31.970084 0 0 1 0 63.940169h-192.001129a31.970084 31.970084 0 0 1 0-63.940169z"  horiz-adv-x="1024" />

    
    <glyph glyph-name="xiaoguanbi" unicode="&#59185;" d="M540.544813 387.974594L773.961891 621.391673c8.671842 8.671842 8.671842 23.124912 0 31.796753-8.671842 8.671842-23.124912 8.671842-31.796753 0l-233.417079-233.417078L274.608327 653.91108c-8.671842 8.671842-23.124912 8.671842-31.796753 0s-8.671842-23.124912 0-31.796754l233.417078-233.417078-234.139732-234.139732c-8.671842-8.671842-8.671842-23.124912 0-31.796754 4.335921-4.335921 10.117149-6.503881 15.898377-6.503881 5.781228 0 11.562456 2.16796 15.898377 6.503881l233.417078 233.417079L740.719831 122.760762c4.335921-4.335921 10.117149-6.503881 15.898376-6.503881s11.562456 2.16796 15.898377 6.503881c8.671842 8.671842 8.671842 23.124912 0 31.796754l-231.971771 233.417078z"  horiz-adv-x="1024" />

    
    <glyph glyph-name="ziyuan" unicode="&#59556;" d="M896 640v-32L512 480 128 608v32l384 128 384-128zM512 416L224 512l-96-32v-32l384-128 384 128v32l-96 32-288-96z m0-160L224 352l-96-32v-32l384-128 384 128v32l-96 32-288-96z m0-160L224 192l-96-32v-32l384-128 384 128v32l-96 32-288-96z"  horiz-adv-x="1024" />

    
    <glyph glyph-name="addressbook" unicode="&#59106;" d="M896 576h-128a32 32 0 0 1 0-64h128a32 32 0 0 1 0 64M896 448h-128a32 32 0 0 1 0-64h128a32 32 0 0 1 0 64M768 640h128a32 32 0 0 1 0 64h-128a32 32 0 0 1 0-64M768 60.64H193.504c-0.416 0-0.96 0.256-1.504 0.672v118.688c0 5.856 5.92 14.912 12.096 17.472 1.568 0.64 156.896 68.64 275.904 68.64 118.752 0 274.368-67.968 276.672-68.992 5.312-2.208 11.328-11.328 11.328-17.12v-119.36z m-407.584 394.56v104.768a112 112 0 0 0 111.776 112 112 112 0 0 0 111.744-112v-104.768a112 112 0 0 0-111.744-112.064 112.064 112.064 0 0 0-111.776 112.064z m421.344-199.232c-5.12 2.272-97.216 42.56-198.72 62.752a175.904 175.904 0 0 1 64.896 136.448v104.768C647.936 656.992 569.088 736 472.192 736c-96.928 0-175.776-78.976-175.776-176v-104.8c0-56.544 26.88-106.816 68.384-139.072-96.48-20.8-181.344-57.824-185.536-59.712C150.016 244.64 128 211.776 128 179.968v-131.712l1.728-5.024c9.504-27.904 35.136-46.624 63.776-46.624h572.992c33.28 0 60.832 24.864 64.96 56.96l0.544 126.4c0 31.584-21.952 64.416-50.24 76z"  horiz-adv-x="1024" />

    
    <glyph glyph-name="setup" unicode="&#59176;" d="M825.312 329.184a127.04 127.04 0 0 1-91.616-62.624 127.232 127.232 0 0 1-8.448-110.56 318.976 318.976 0 0 0-113.216-65.472A127.072 127.072 0 0 1 512 138.56a127.2 127.2 0 0 1-100.064-48 319.232 319.232 0 0 0-113.216 65.44 127.232 127.232 0 0 1-8.416 110.56 127.04 127.04 0 0 1-91.648 62.624 323.232 323.232 0 0 0 0 130.784 127.104 127.104 0 0 1 91.648 62.592 127.296 127.296 0 0 1 8.416 110.592 318.976 318.976 0 0 0 113.216 65.472A127.232 127.232 0 0 1 512 650.56c39.712 0 76.064 17.92 100.032 48.064a318.72 318.72 0 0 0 113.216-65.472 127.328 127.328 0 0 1 8.448-110.592 127.104 127.104 0 0 1 91.616-62.592 321.536 321.536 0 0 0 0-130.784m56.16 170.304a31.776 31.776 0 0 1-32.832 23.2 63.584 63.584 0 0 0-59.52 31.872 63.744 63.744 0 0 0 2.112 67.52 32 32 0 0 1-3.68 39.936 383.392 383.392 0 0 1-181.696 104.992 31.968 31.968 0 0 1-36.48-16.832A63.68 63.68 0 0 0 512 714.56a63.68 63.68 0 0 0-57.376 35.616 32 32 0 0 1-36.48 16.832 383.264 383.264 0 0 1-181.696-104.96 32 32 0 0 1-3.712-40 63.68 63.68 0 0 0 2.112-67.488 63.68 63.68 0 0 0-59.52-31.872 31.52 31.52 0 0 1-32.8-23.2A383.136 383.136 0 0 1 128 394.56c0-35.648 4.864-70.944 14.528-104.896a31.904 31.904 0 0 1 32.8-23.2 64.032 64.032 0 0 0 59.52-31.904c12.256-21.184 11.456-47.04-2.112-67.456a32 32 0 0 1 3.712-39.968 382.88 382.88 0 0 1 181.696-104.96 31.936 31.936 0 0 1 36.48 16.8A63.648 63.648 0 0 0 512 74.56c24.512 0 46.496-13.632 57.376-35.584a32 32 0 0 1 36.48-16.832 383.04 383.04 0 0 1 181.696 104.992 32 32 0 0 1 3.68 40 63.68 63.68 0 0 0-2.112 67.424 63.136 63.136 0 0 0 59.52 31.904c15.04-0.896 28.704 8.736 32.832 23.2A384.64 384.64 0 0 1 896 394.56c0 35.648-4.896 70.944-14.528 104.96M512 298.56c-52.928 0-96 43.104-96 96 0 52.96 43.072 96 96 96s96-43.04 96-96c0-52.896-43.072-96-96-96m0 256c-88.224 0-160-71.744-160-160 0-88.224 71.776-160 160-160s160 71.808 160 160c0 88.256-71.776 160-160 160"  horiz-adv-x="1024" />

    
    <glyph glyph-name="jiaoxing" unicode="&#59559;" d="M170.368 149.333h-21.035c-0 0-0 0-0 0-11.782 0-21.333-9.551-21.333-21.333 0-0.038 0-0.075 0-0.112l-0-21.114c0-11.883 9.557-21.44 21.397-21.44h725.184c11.733 0 21.397 9.643 21.397 21.44v21.12c0 0.038 0 0.083 0 0.128 0 11.748-9.505 21.276-21.245 21.312l-21.849 0c-0-0-0-0-0-0-35.285 0-63.897 28.574-63.957 63.845l-0 277.702c-0.021 152.896-124.245 277.12-277.291 277.12-153.173 0-277.269-124.053-277.269-277.12v-277.696c-0.085-35.282-28.706-63.851-64-63.851-0 0-0 0-0 0zM170.368 192c0-0 0-0 0.001-0 11.73 0 21.248 9.466 21.333 21.176l0 277.704c0 176.64 143.211 319.787 319.936 319.787 176.619 0 319.936-143.339 319.936-319.787v-277.696c0-11.669 9.557-21.184 21.291-21.184h21.845c35.325-0.012 63.957-28.652 63.957-63.979 0-0.045-0-0.090-0-0.135l0-21.113c-0.036-35.39-28.716-64.070-64.103-64.107l-725.166-0c-0.013-0-0.028-0-0.043-0-35.358 0-64.021 28.663-64.021 64.021 0 0.030 0 0.060 0 0.090l-0 21.115c-0 0.032-0 0.069-0 0.107 0 35.346 28.654 64 64 64 0 0 0-0 0-0l21.035 0zM512 704c-106.039 0-192-85.961-192-192 0-11.782 9.551-21.333 21.333-21.333 11.782 0 21.333 9.551 21.333 21.333 0 82.475 66.859 149.333 149.333 149.333 11.782 0 21.333 9.551 21.333 21.333 0 11.782-9.551 21.333-21.333 21.333zM234.667 0h554.667v-42.667h-554.667v42.667z"  horiz-adv-x="1024" />

    
    <glyph glyph-name="xiugai" unicode="&#59599;" d="M684.202667 778.752c15.893333 15.872 42.154667 15.36 58.922666-1.408l90.517334-90.517333c16.661333-16.661333 17.344-42.986667 1.429333-58.922667l-445.653333-445.653333c-7.936-7.914667-23.104-16.746667-34.218667-19.776l-143.701333-39.253334c-21.909333-5.994667-35.114667 7.104-29.568 28.949334l37.248 146.773333c2.773333 10.944 11.562667 26.346667 19.392 34.176l445.653333 445.653333zM268.736 302.933333c-2.901333-2.901333-8.106667-12.074667-9.130667-16.021333l-29.12-114.773333 111.957334 30.570666c4.437333 1.216 13.632 6.549333 16.810666 9.728l445.653334 445.653334-90.517334 90.496-445.653333-445.653334zM682.794667 717.013333l90.517333-90.517333-30.186667-30.186667-90.496 90.517334 30.165334 30.165333z m-362.026667-362.048l90.496-90.517333-30.165333-30.165333-90.517334 90.496 30.165334 30.186666zM170.666667 21.333333c0 11.776 9.429333 21.333333 21.461333 21.333334h661.077333a21.333333 21.333333 0 1 0 0-42.666667H192.128A21.333333 21.333333 0 0 0 170.666667 21.333333z"  horiz-adv-x="1024" />

    


  </font>
</defs>
</svg>
